#TITLE:Clockwork Genesis;
#SUBTITLE:;
#ARTIST:Inspector K;
#TITLETRANSLIT:;
#SUBTITLETRANSLIT:;
#ARTISTTRANSLIT:;
#GENRE:Techno;
#CREDIT:Drum & Bass;
#BANNER:Clockwork Genesis-banner.png;
#BACKGROUND:Clockwork Genesis-bg.png;
#LYRICSPATH:;
#CDTITLE:;
#MUSIC:Clockwork Genesis.ogg;
#OFFSET:0.007;
#SAMPLESTART:39.740;
#SAMPLELENGTH:11.960;
#SELECTABLE:YES;
#BPMS:0.000=175.000;
#STOPS:160.000=1.028
,173.000=1.028
,234.000=1.028
;
#BGCHANGES:0.000=Clockwork Genesis-bg.png=1.000=0=0=1=====,
16.000=-random-=1.000=0=0=1=====,
32.000=-random-=1.000=0=0=1=====,
48.000=-random-=1.000=0=0=1=====,
64.000=-random-=1.000=0=0=1=====,
80.000=-random-=1.000=0=0=1=====,
84.000=In The Groove 2/828_JumpBack.mpg=1.000=0=0=1=====,
100.000=-random-=1.000=0=0=1=====,
116.000=-random-=0.300=0=0=1=Checkerboard1File2x2====,
132.000=-random-=0.300=0=0=1=Checkerboard1File2x2====,
148.000=-random-=1.000=0=0=1=====,
160.000=Clockwork Genesis-bg.png=1.000=0=0=1=====,
161.000=-random-=1.000=0=0=1=====,
173.000=Clockwork Genesis-bg.png=1.000=0=0=1=====,
174.000=-random-=1.000=0=0=1=====,
190.000=-random-=1.000=0=0=1=====,
206.000=-random-=1.000=0=0=1=====,
222.000=-random-=1.000=0=0=1=====,
234.000=Clockwork Genesis-bg.png=1.000=0=0=1=====,
235.000=In The Groove 2/828_JumpBack.mpg=1.000=0=0=1=====,
251.000=-random-=1.000=0=0=1=====,
267.000=-random-=1.000=0=0=1=====,
283.000=-random-=1.000=0=0=1=====,
299.000=Clockwork Genesis-bg.png=1.000=0=0=1=====,
99999=-nosongbg-=1.000=0=0=0 // don't automatically add -songbackground-
;
#BGCHANGES2:80.000=white flash=1.000=0=0=1=====,
84.000=white flash=1.000=0=0=1=====,
144.000=white flash=1.000=0=0=1=====,
145.500=white flash=1.000=0=0=1=====,
148.000=white flash=1.000=0=0=1=====,
174.000=white flash=1.000=0=0=1=====,
186.000=yellow flash=1.000=0=0=1=====,
190.000=white flash=1.000=0=0=1=====,
202.000=yellow flash=1.000=0=0=1=====,
206.000=white flash=1.000=0=0=1=====,
218.000=yellow flash=1.000=0=0=1=====,
222.000=white flash=1.000=0=0=1=====,
234.000=yellow flash=1.000=0=0=1=====,
267.000=white flash=1.000=0=0=1=====,
295.000=yellow flash=1.000=0=0=1=====,
296.500=yellow flash=1.000=0=0=1=====,
299.000=white flash=1.000=0=0=1=====,
;
#KEYSOUNDS:;
// cache tags:
#FIRSTBEAT:16.000;
#LASTBEAT:303.000;
#SONGFILENAME:/Songs/In The Groove 2/Clockwork Genesis/Clockwork Genesis.sm;
#HASMUSIC:0;
#HASBANNER:0;
#MUSICLENGTH:100.000;
// end cache tags

//---------------dance-single - C. Foy, K. Ward----------------
#NOTES:
     dance-single:
     C. Foy, K. Ward:
     Easy:
     5:
     0.367,0.377,0.220,0.290,0.010,206.000,22.000,29.000,12.000,0.000,0.000:
0000
0000
0000
0000
,
0000
0000
0000
0000
,
0000
0000
0000
0000
,
0000
0000
0000
0000
,
1000
0000
0000
0100
0000
0000
0000
0000
,
0010
0000
0100
0100
,
1000
0000
0000
0010
0000
0000
0000
0000
,
1000
0000
0001
1001
,
0001
0000
0000
0010
0000
0000
0000
0000
,
0110
0000
0010
0010
,
0100
0000
0000
1000
0000
0000
0000
0000
,
0001
0000
1000
1000
,
0010
0000
0000
0100
0000
0000
0000
0000
,
0001
0000
0010
0100
,
0010
0000
0000
0100
0000
0000
0000
2000
,
0000
0000
0000
0000
,
3010
0000
0000
0100
0000
0000
0000
0000
,
0001
0000
0100
0001
,
0001
0000
0000
0010
0000
0000
0000
0220
,
0000
0000
0000
0330
,
1001
0000
0000
0000
,
1000
0100
0010
0100
,
1000
0010
0001
0010
,
1000
0100
0001
0100
,
1000
0010
0100
0001
,
0001
0010
0100
0010
,
0001
0100
1000
0100
,
0001
0010
1000
0010
,
0001
0000
0100
0000
0220
0000
0000
0330
,
1000
0100
0010
0001
,
2000
0000
3020
0000
,
2030
0000
0010
3000
1000
0000
0001
0000
,
0020
0000
0000
0000
0230
0000
0000
0300
,
0010
0001
0100
0000
,
0010
1000
0100
0000
,
1000
0010
0001
0010
,
2002
0000
0000
3003
,
1001
0000
0000
0000
M00M
M00M
0000
0000
,
1100
0000
0000
MM00
0000
0000
0000
0000
,
0010
0000
0000
0100
0000
0000
0100
0000
,
1001
M00M
0000
0000
1000
0000
0000
0000
0000
0000
0000
0000
1001
0000
0000
0000
,
0000
1100
0000
0011
,
0000
0000
1100
0000
0000
0100
0000
0000
,
0100
0000
0000
0000
2002
3003
0000
0000
1000
0000
0000
0000
1000
0000
0000
0000
,
0010
0010
0100
0100
,
0001
0001
0010
0010
,
0001
0001
2200
0300
,
0010
3000
0000
0000
0001
0000
0001
0000
,
1000
1000
0010
1000
,
0100
0010
0100
1000
,
0001
0000
0000
0000
0010
0000
0000
0000
0022
0000
0000
0000
0000
0030
0000
0000
,
00M0
0000
0000
0003
0011
0000
0000
1000
,
0000
0001
0000
0001
0010
0000
0000
0010
,
0000
0100
0000
0000
1000
0000
0000
0001
,
0000
0000
1000
0000
0000
0000
0000
0000
2200
0000
0000
0000
0000
0300
0000
0000
,
0M00
0000
0000
0000
3001
0000
0000
0001
,
0000
0020
0000
0000
0001
0030
0000
0001
,
0000
0000
2000
0000
0000
0000
0000
0000
0001
3000
0000
0000
0000
0000
0100
0000
,
0000
0000
0001
0000
0000
0000
0000
0000
0110
0MM0
0000
0000
0001
0000
0000
0000
,
0000
0100
0000
0010
,
0010
2000
0000
3001
,
0000
0000
0010
0000
0000
0000
0000
0001
,
0010
0002
0000
1003
,
0000
0000
1100
0000
0000
0000
0000
0001
,
1000
0200
0000
2300
,
0000
0020
0000
3000
0000
1000
0030
1000
,
0001
0000
1000
0000
0000
0000
1000
0100
,
1000
0000
0000
0000
0001
0000
0001
0010
,
0001
0000
0000
0000
0100
0000
0100
0010
,
0100
0000
0000
0000
0000
0010
0000
1000
,
0001
0000
1001
0000
0000
0000
1000
0100
,
1000
0000
0000
0000
0100
0000
0010
0001
,
0010
0000
0000
0000
0010
0000
0001
0010
,
0001
0000
0000
0000
0001
1000
0000
0000
,
0010
0001
0010
2002
,
0000
0000
3003
0000
;

//---------------dance-single - K. Ward/C. Foy----------------
#NOTES:
     dance-single:
     K. Ward/C. Foy:
     Medium:
     7:
     0.551,0.755,0.410,0.480,0.150,297.000,41.000,48.000,37.000,0.000,0.000:
0000
0000
0000
0000
,
0000
0000
0000
0000
,
0000
0000
0000
0000
,
0000
0000
0000
0000
,
1000
0000
0001
0100
0000
0010
0000
1000
,
0000
0000
1000
0100
0010
0001
1000
0001
,
1000
0000
1000
0010
0000
0100
0000
0001
,
1001
0000
M00M
0000
,
0001
0000
0000
1000
0000
0010
0000
0100
,
0000
0010
1000
0100
0010
0100
0010
0001
,
0100
0000
0010
1000
0000
0100
0000
2200
,
0000
0000
3300
0000
,
0001
0000
0000
0100
0000
0001
0000
1000
,
0000
0100
1000
0100
0010
0001
0010
0000
,
0001
0000
1000
0010
0000
0100
0000
1001
,
0000
0000
M00M
0000
,
0100
0000
0000
0001
0000
0010
0000
0100
,
0000
1000
0010
0100
0010
1000
0001
1000
,
0100
0000
1000
0100
0000
0010
0000
0200
,
2000
3300
0000
0000
,
2200
0000
0000
0300
0000
0000
0M00
0000
0000
0000
0000
0000
0200
0000
3300
0000
,
1000
0001
0100
0000
0010
1000
0100
0000
,
0010
0001
0100
0000
0010
1000
0100
0000
,
0010
0100
1000
0000
0010
1000
0001
1000
,
0000
0010
1000
0000
0100
0000
0010
0001
,
2000
0000
0000
3001
0000
1000
0000
0000
0100
0000
0000
0010
0000
0000
0001
0000
,
0000
0000
0001
0000
0100
0000
0010
0000
1000
0000
0000
0100
0000
0000
1000
0000
,
0001
0000
0000
0001
0000
0000
0010
0000
0000
0000
0001
0000
0010
0000
0001
0000
,
0000
0000
1000
0000
2200
0000
0000
3300
,
1000
0000
1000
0100
0000
0000
0000
0000
0010
0000
0010
0001
0000
0000
0000
0000
,
2000
0000
0000
3000
0020
0000
0000
0000
,
1030
0000
0010
1000
0000
0000
0000
0000
1000
0000
0000
0010
0000
0000
0020
0000
,
0000
0000
0000
0030
0200
0000
0000
0300
,
0010
0000
0010
1000
0000
0000
0000
0000
0010
0000
0000
0100
0000
0000
0010
0000
,
0000
1000
0010
0010
0100
0000
0001
0000
,
2000
0000
0000
0000
0000
3000
0001
0000
0000
0000
1000
0000
0010
0000
2001
0000
,
0000
000M
0000
0002
0000
0000
3003
0000
,
0110
0000
0000
0000
0MM0
0MM0
0000
0000
,
1100
0000
0000
MM00
0000
0000
0000
0000
,
0021
0000
0000
003M
0000
0000
00M0
0000
0000
0000
0000
0000
0100
0000
0000
0000
,
1001
M00M
0000
0000
1100
0000
0000
0000
0000
0000
0110
0000
0000
0000
0000
0000
,
0000
1000
2200
0000
3300
0011
0000
00MM
,
0000
0000
1100
0000
0000
M1MM
0000
0000
,
MM1M
0000
0000
0000
2002
3003
0000
0000
1000
0000
0100
0000
0010
0000
0000
0000
,
0200
0000
0000
0000
0310
0000
0100
1000
,
0100
0000
1000
0010
0001
0010
0100
0001
,
0100
0001
2200
0300
,
0M10
3000
0000
0000
1000
0000
0010
0001
,
0010
0100
0001
0000
1000
0100
0010
0000
,
0100
0000
0001
0000
0010
1000
0100
0010
,
0100
0000
1000
0000
0001
0000
0000
0000
0022
0000
0000
0000
0000
0030
0000
0000
,
00M0
0000
0000
0000
0000
0000
0003
0000
M022
0000
0000
0033
0000
0000
1001
0000
,
0000
0110
0000
0101
0202
0303
0000
0101
,
0000
0000
1010
0000
0000
0000
1100
0000
2200
0000
0000
3300
0000
0000
1100
0000
,
0000
0000
1001
0000
0000
0000
1100
0000
2200
0000
0000
0000
0000
0300
0000
0000
,
0M00
0000
0000
0000
3001
0000
0000
1001
,
0000
0021
0000
000M
0001
0030
0000
1001
,
0000
0000
2100
0000
0000
0000
0M00
0000
0100
3000
0000
0000
0000
0000
1100
0000
,
0000
0000
0000
0000
0000
0000
0000
0000
1001
0000
0000
0000
0000
0000
0000
0000
0000
0000
0000
0000
0000
0000
0000
0000
0001
0000
0000
0000
1000
0000
0000
0000
0001
MMM0
0000
0000
000M
0000
0000
0000
0000
0000
0000
0000
0000
0000
0000
0000
1000
0000
0000
0000
0000
0000
0000
0000
0001
0000
0000
0000
0100
0000
0000
0000
,
0000
0000
0000
0000
0010
0000
1000
0100
0000
0000
0000
0000
0010
0000
0001
0000
,
0100
0000
0000
0000
0010
0000
1000
0000
0100
0000
0000
0000
0010
0000
0100
1000
,
0000
0000
0000
0000
0010
0000
1000
0001
0000
0000
1000
0000
0000
0000
0010
0000
,
0100
0000
0000
0000
0010
0000
0000
0000
0100
0000
0000
0000
0002
0000
0000
1000
,
0003
0001
0000
0000
0100
0000
0000
0010
0000
0000
1000
0000
0000
0000
1000
0000
,
0010
0000
0100
0000
0001
0000
0000
0010
0000
0000
0001
0000
1000
0000
0000
0000
,
0000
0001
0000
0100
1000
0100
0000
0000
,
0001
0000
0000
0000
0021
0000
0000
0000
000M
0000
0000
0000
0031
0000
0001
0010
,
0000
0000
0000
0000
0100
0000
0100
1000
0000
0000
0000
0000
0020
0000
0000
0000
,
0000
0000
0000
0000
0200
0000
0000
0000
0030
0000
0300
0000
0001
0000
0010
0001
,
0000
0000
0000
0000
0001
0000
0000
1000
0000
0000
0200
0000
0000
0000
M000
0000
,
0000
0000
0000
0000
2000
0000
0000
0000
0000
3300
0000
0000
0100
0000
0000
1000
,
0000
0000
0000
0000
0010
0000
0000
0100
0000
0000
0001
0000
0000
0000
0000
0000
,
0010
0000
0001
1000
0001
1000
1002
0000
,
M000
2000
3003
0001
0100
1002
0000
1003
,
0001
0100
0010
0000
0100
0000
2002
0000
,
0000
0000
3003
0000
;

//---------------dance-single - C. Foy----------------
#NOTES:
     dance-single:
     C. Foy:
     Challenge:
     11:
     0.930,0.944,0.680,0.560,0.855,527.000,68.000,56.000,50.000,0.000,0.000:
0000
0000
0000
0000
,
0000
0000
0000
0000
,
0000
0000
0000
0000
,
0000
0000
0000
0000
,
2001
0000
0000
0000
0000
0000
0000
0000
0000
0000
000M
0000
0100
0000
3000
0000
0000
0000
0010
0000
0000
0000
0000
0000
0000
0000
0000
0000
0000
0000
0100
0000
0000
0000
0000
0000
0000
0000
0000
0000
0000
0000
0010
0000
0000
0001
0000
0000
,
0100
0000
0010
0000
0100
0000
0010
0000
0001
0000
0010
0000
0100
0010
1000
0000
,
0100
0000
0010
1000
0000
0010
0000
2002
,
0000
0000
3003
0000
0100
0000
0000
0001
0000
0100
0000
0000
0010
0000
0000
0000
,
0001
0000
0010
1000
0000
0100
0000
0001
,
0000
0000
0100
1000
0010
0000
0100
0000
0000
0010
1000
0000
1000
0001
0100
0000
,
0100
0000
0010
0001
0000
0010
0000
1000
,
2010
0000
0000
0000
00M0
0000
0000
3000
0010
0100
0001
0000
0001
0100
0010
0000
,
2001
0000
301M
1020
0000
M130
0000
0102
,
0000
0000
1M03
0010
0100
0000
0100
0000
0010
0000
0100
0000
0001
1000
0100
0000
,
1200
0000
M310
2001
0000
301M
0000
1020
,
1000
2030
3000
0000
M00M
0000
0000
0000
,
2100
0000
3M01
0201
0000
031M
0000
2100
,
0000
0000
3M10
1000
0001
0000
0001
0000
0000
1000
0100
0000
0100
1000
0001
0000
,
1002
0000
0000
0000
M103
0000
0210
0000
0000
0000
03M1
1000
0010
0000
0202
0000
,
0000
0303
0010
1000
0100
0010
0100
1000
0001
0100
0010
1000
0100
0000
0000
0000
,
1100
0100
1000
0000
0000
0000
0001
0100
0010
0000
0000
0000
1020
0000
1030
0000
,
0001
0000
0010
0001
0000
0001
0100
0000
0010
0000
0010
1000
0000
0000
1000
0000
,
0000
0000
0100
0000
0000
0001
0000
0000
0100
0000
0100
1000
0000
1000
0001
0000
,
1001
0000
0100
0010
0000
0010
1000
0000
0001
0000
0100
0001
0000
0001
1000
0000
,
0000
0000
0010
0000
0100
0000
0010
1000
0001
0000
0100
0010
0000
0010
1000
0000
,
1002
0000
1003
0001
0000
1000
0000
1000
0100
0000
0000
0010
0000
0000
1000
0000
,
0000
0000
0010
0000
0001
0000
0100
0000
0010
0000
0010
0100
0000
0100
0001
0010
,
0100
0000
0100
1000
0000
0000
0010
0000
0000
0000
1000
0000
0010
0100
0001
0000
,
0000
0000
0010
0000
0100
0000
0010
0100
1000
0000
0001
0100
0000
0100
0001
0000
,
1010
0000
1000
0100
0000
1000
0001
0000
0010
0000
0010
0001
0000
0001
0100
0000
,
0000
0000
0010
0000
0000
0100
0000
0000
1000
0000
1000
0100
0000
0100
0001
0000
,
1001
0000
0001
0010
0000
0010
0100
0000
1000
0000
0010
1000
0000
0010
0100
0000
,
0000
0000
0010
0000
0100
0000
0010
0100
0001
0000
0100
0010
0000
0010
1000
0000
,
2001
0000
0100
310M
0000
1000
0000
0000
0100
0000
0000
0001
0000
0000
0100
0000
,
0000
0000
0010
0000
0001
0000
0100
0000
1000
0000
1000
0100
0000
0010
0100
0001
,
1000
0100
0010
0001
0000
0000
1000
0000
0000
0000
1000
0000
1000
0001
0100
0000
,
1001
0000
0010
0000
1000
0000
1100
0000
0010
0000
0010
0001
0000
0100
0010
0000
,
2010
0000
0000
0000
30M0
0000
0000
0020
MM0M
0000
2M0M
0000
3030
0000
1000
0100
,
1200
0000
0000
M000
0000
0000
0010
0000
0300
0000
0000
0000
0M00
0000
0010
0001
,
0010
0000
0000
01M1
0000
0000
2100
0000
0000
0000
0000
0000
0M01
0002
3000
0100
,
0203
0000
0000
0000
0000
0000
0300
0000
M0MM
0000
0000
0000
0000
0000
0000
0000
0000
0000
0000
0000
0000
0000
0000
0000
0010
0000
0000
0000
0000
0000
0000
0000
0000
0000
0000
0000
0000
0000
0000
0000
0000
0000
0000
0000
0000
0000
0000
0000
0010
0000
0000
0000
0000
0000
0000
0000
0000
0000
0000
0000
0000
0000
0000
0000
0000
0000
0000
0000
0000
0000
0000
0000
0000
0000
0000
0000
0000
0000
0000
0000
0000
0000
0000
0000
0000
0000
0000
0000
0000
0000
0000
0000
0000
0000
0000
0000
0000
0000
0000
0000
0000
0000
0000
0000
0000
0000
0000
0000
0000
0000
0000
0000
0000
0000
0000
0000
0000
0000
0000
0000
0000
0000
0000
0000
0000
0000
0000
0000
0000
0000
0000
0000
1000
0000
0000
0000
0000
0000
0000
0000
0000
0000
0000
0000
0001
0000
0000
0000
0000
0000
0000
0000
0000
0000
0000
0000
0000
0000
0000
0000
0000
0000
0000
0000
0000
0000
0000
0000
0011
0000
0000
0000
0000
0000
0000
0000
0000
0000
0000
0000
0000
0000
0000
0000
0000
0000
0000
0000
0000
0000
0000
0000
,
0000
1010
2200
0000
3300
0011
0000
00MM
,
0000
0000
1000
0001
0100
0000
0000
0010
0000
0000
M1MM
0000
0000
0000
0000
0000
,
MM10
1000
0000
0002
0100
0M03
1000
0001
0010
0000
1000
0000
0010
0000
0001
0100
,
0000
0010
0000
0001
0000
0000
0010
0100
0001
0000
0001
0000
0010
0000
0010
0100
,
0000
0100
0000
0001
0100
0000
0010
0001
0100
0000
0010
0000
0001
0000
0010
0020
,
0000
0000
M030
0000
0100
0000
0000
0000
2020
0000
0030
0000
0000
0000
31M0
2000
,
0000
0001
0000
3001
1000
0000
0010
0000
1001
0000
0010
0000
0100
0000
0010
0100
,
0000
0001
0000
0010
0000
0000
0100
0000
0010
0000
0001
0000
0100
0000
0100
0010
,
0000
0010
0000
0010
0100
0000
0100
0001
0010
0000
0010
0000
0100
0000
0100
1000
,
0000
0010
0000
M101
0000
0000
0001
0000
MM22
0000
0000
0030
0000
0000
0000
0000
,
10M3
0100
0010
0000
0010
0001
0100
0000
202M
0000
0000
3030
0000
0000
1001
0000
,
0000
0000
0110
0000
0000
0000
0001
0100
0202
0000
0303
0000
0000
0000
0101
0000
,
0000
0000
1010
0000
0000
0000
1000
0100
2200
0000
0000
3300
0000
0000
1010
0000
,
0000
0000
0101
0000
0000
0000
1000
0100
1100
0000
2000
0000
0100
0000
3002
0200
,
0003
0302
2000
0003
0001
3000
1000
0000
1001
0000
0000
0000
0000
0000
0110
0000
,
0000
0000
0021
0000
0000
0000
013M
0010
0110
0000
0000
0000
0000
0000
0011
0000
,
0000
0000
2100
0000
0000
0000
3M10
1000
1010
0000
0000
0000
0000
0000
1100
0000
,
0000
0000
0000
0000
0000
0000
0000
0000
1001
0000
0000
0000
0000
0000
0000
0000
0000
0000
0000
0000
0000
0000
0000
0000
0001
0000
0000
0000
1000
0000
0000
0000
2001
0MM0
3000
0000
000M
0000
0000
0000
0000
0000
0000
0000
0000
0000
0000
0000
1000
0000
0000
0000
0000
0000
0000
0000
1000
0000
0000
0000
0100
0000
0000
0000
,
0000
0100
0010
0000
0010
0000
0010
0001
0000
0001
0100
0000
0000
0000
1000
0000
,
0000
0100
0000
0000
0001
0000
0001
1000
0000
1000
0100
0000
1001
0000
0001
0100
,
0000
0100
0010
0000
0001
0000
0010
1000
0000
1000
0100
0000
0000
0000
0010
0000
,
0100
0000
0100
0010
0001
0000
0001
0100
0000
0100
0010
0000
1002
0000
0000
M103
,
0000
0010
0000
0000
0001
0000
0000
0010
0000
0000
1000
0000
0000
0000
0100
0000
,
0001
0000
0100
0000
1000
0000
1000
0010
0000
0010
0100
0001
0010
0100
1000
0010
,
0000
0000
0100
0000
0000
0000
0010
0000
1000
0100
1100
0000
0000
0000
1000
0000
,
0100
0000
0001
0000
0100
0000
0100
1000
0000
1000
0100
0000
1010
0000
0010
0100
,
0000
1000
0001
0000
0001
0000
0001
0010
0000
0100
1000
0000
0000
0000
0010
0000
,
0000
0001
0000
0000
0010
0000
1000
0100
0000
1000
0010
0000
1001
0000
0001
0100
,
0000
0100
0010
0000
0010
0000
1000
0100
0000
0100
1000
0000
0000
0000
1000
0000
,
0010
0000
0010
0100
0001
0000
0001
1000
0000
0001
0100
0000
1002
0000
0000
M103
,
0000
0010
0000
0000
0100
0000
0000
1000
0000
0000
0100
0000
0000
0000
0001
0000
,
0010
0000
1000
0000
0010
0000
0100
0010
0000
0010
0001
0100
0010
0000
0010
0100
,
0000
0000
2001
0000
3000
0000
1001
0000
0001
0010
1001
0000
0011
0000
0100
0000
,
0001
0000
1010
0000
0010
0000
0010
0100
0000
0100
0001
0000
2002
0000
0000
0000
,
0000
0000
3003
0000
;

//---------------dance-single - K. Ward----------------
#NOTES:
     dance-single:
     K. Ward:
     Hard:
     9:
     0.703,0.679,0.440,0.260,0.545,422.000,44.000,26.000,33.000,0.000,0.000:
0000
0000
0000
0000
,
0000
0000
0000
0000
,
0000
0000
0000
0000
,
0000
0000
0000
0000
,
1000
0000
0100
0010
0000
0001
0000
0100
,
0000
0000
1000
0000
0100
0000
0001
0000
1000
0000
0001
0000
0010
0100
0010
0000
,
0001
0000
0100
0010
0000
0100
0000
2002
,
0000
3003
M00M
0000
,
0001
0000
0100
1000
0000
0100
0000
0001
,
0000
0000
1000
0100
1000
0000
0010
0000
0100
0000
0001
0000
0010
0000
0100
0000
,
0010
0000
0001
0011
0000
1100
0000
0020
,
0002
0000
0000
0000
0000
0000
0033
0000
1000
0100
1000
0000
0010
0100
0010
0000
,
0200
0000
0301
0010
0000
0100
0000
0010
,
0000
0000
0001
0010
0001
0000
0100
0000
1000
0000
0100
0000
0001
0000
1000
0000
,
1000
0000
0010
0010
0000
0100
0000
2002
,
0000
3003
M00M
0000
,
0010
0001
0010
0100
0001
1000
0010
0100
,
0100
0000
0001
0000
0000
0000
0110
0000
0000
0000
1000
0000
0100
0010
0100
0000
,
1000
0001
0010
0001
0000
0100
1000
0100
,
0000
0000
0001
1000
0001
1000
0001
1000
0001
0000
0000
0000
0011
0000
0000
0000
,
2200
0000
0000
0300
0000
0000
0M00
0000
0000
0000
0000
0000
3100
0000
0000
0000
,
1000
0000
0000
0001
0000
0100
0000
0000
0001
0000
0000
0010
0000
0000
0001
0000
,
0000
0000
1000
0000
0000
0001
0000
0000
0100
0000
0000
0100
0000
0000
0010
0000
,
1000
0000
0000
0001
0000
0010
0000
0000
0001
0000
0000
1000
0000
0000
0001
0000
,
0000
0000
0010
0000
0010
0000
0000
0000
0001
1000
0000
0001
0000
0000
0010
0000
,
0001
0000
0000
0010
0000
0100
0000
0000
1000
0000
0000
0010
0000
0000
0100
0000
,
0000
0000
0001
0000
0001
0000
0001
0000
1000
0000
0000
0010
0000
0000
0100
0000
,
0001
0000
0000
0010
0000
0000
0110
0000
0000
0000
1000
0000
0001
0000
1001
0000
,
0000
0000
0100
0000
0010
0000
0000
0000
1000
0100
1000
0100
1000
0000
0000
0000
,
0001
0000
0000
1000
0000
0010
0000
0000
0100
0000
0000
0001
0000
0000
0010
0000
,
0000
0000
0001
0000
0000
1000
0000
0000
1100
0000
0000
0110
0000
0000
1001
0000
,
0010
0000
0000
0001
0000
0010
0000
0000
0100
0000
0000
0001
0000
0000
1000
0000
,
0000
0000
0010
0000
0110
0000
0000
0000
1000
0001
0000
1000
0000
0000
0001
0000
,
0002
0000
0000
0100
0000
0103
0000
0000
0010
0000
0000
1000
0000
0000
0100
0000
,
0000
0000
0010
0000
0100
0000
1000
0000
0010
0000
0000
0100
0000
0000
0001
0000
,
1001
0000
0000
0110
0000
0000
0011
0000
0000
0000
1000
0000
0001
0000
1000
0000
,
0200
000M
0000
0020
0000
0300
0031
0MM0
,
1001
0000
0000
0000
0000
0000
0000
0010
MM0M
0000
010M
0000
0000
0000
0010
0000
,
1001
0000
0000
0000
0000
0000
0110
0000
0000
0000
0000
0000
0000
0000
1000
0010
,
0100
0000
0000
0011
0000
0000
2100
0000
0000
0000
0000
0000
3M01
0010
0000
0010
,
0001
0000
0000
0000
0MM0
0000
1000
0000
0000
0000
0000
0000
0100
0000
0000
0000
0000
0000
0000
0000
0000
0000
0000
0000
0000
0000
0000
0000
0000
0000
0000
0000
0000
0010
0000
0000
0000
0000
0000
0000
0000
0000
0100
0000
0000
0000
0000
0000
,
0000
1000
2200
0000
3300
0011
0000
00MM
,
0000
0000
0100
0010
1000
0000
0000
0100
0000
0000
M01M
0000
0000
0000
0000
0000
,
MM01
0100
0000
0100
0010
0000
1000
0100
1000
0000
0100
0000
0010
0000
0000
0100
,
0000
0000
0100
0000
0000
0000
1000
0000
1000
0000
0001
0000
0100
0000
0010
0100
,
0000
0001
0000
0010
0001
0000
1000
0000
1000
0000
0001
0000
0100
0000
0010
1000
,
0000
0000
0000
0000
0110
0000
0000
0000
2200
0000
0000
0000
0300
0000
3000
0M00
,
0010
M100
0000
0100
0001
0000
1000
0000
1000
0000
0010
0000
0100
0000
0010
0100
,
0000
0100
0000
0001
0010
0000
0001
0000
0100
0000
1000
0000
0100
0000
0010
0100
,
0000
0100
0000
0001
0010
0000
0001
0000
1000
0000
0100
0000
0010
0000
0100
0010
,
0000
0010
0000
0001
1000
0000
0010
0000
0220
0000
0000
0000
0000
0030
0000
0000
,
03M1
1000
0001
0000
0001
1000
0001
0000
M020
0000
0000
0030
0000
0000
1001
0000
,
0000
0000
1100
0000
0000
0000
0001
0010
0001
0000
0000
0000
0000
0000
1010
0000
,
0000
0000
0101
0000
0000
0000
0100
0010
0100
0000
0001
0000
0000
0000
0010
0000
,
0000
0000
0100
0000
0000
0000
0010
0200
0020
0000
0000
0000
0300
0000
0000
0000
,
0M00
0000
0001
0000
0031
0000
0000
1100
,
0000
0001
0000
001M
0110
0000
0000
1001
,
0000
0000
0101
0000
0000
0000
0M10
1000
0010
0000
0100
0000
0000
0000
0110
0000
,
0000
0000
0000
0000
0000
0000
0000
0000
1100
0000
0000
0000
0000
0000
0000
0000
0000
0000
0000
0000
0000
0000
0000
0000
0001
0000
0000
0000
0010
0000
0000
0000
0001
MMM0
0000
0000
000M
0000
0000
0000
0000
0000
0000
0000
0000
0000
0000
0000
1000
0000
0000
0000
0000
0000
0000
0000
0000
0000
0000
0000
0001
0000
0000
0000
,
0000
0100
0000
0000
0010
0000
0000
1000
0000
0000
0001
0000
0000
0000
0010
0000
,
0000
0001
0000
0000
1000
0000
0000
0100
0000
0000
0010
0000
0001
0000
0000
0100
,
0000
1000
0000
0000
0100
0000
0000
0001
0000
0000
1000
0000
0000
0000
0001
0000
,
0001
0000
0000
0000
1000
0100
1000
0100
1000
0000
0000
0000
0010
0000
0000
0100
,
0000
0001
0000
0000
1000
0000
0000
0001
0000
0000
0010
0000
0000
0000
0001
0000
,
1000
0000
0020
0000
0100
0000
0000
0100
0000
0000
0130
0000
1001
0000
0000
0110
,
0000
0011
0000
0001
1000
0200
0000
0010
,
0310
0000
0000
0000
0001
1000
0001
1000
0001
0000
0000
0000
1000
0100
1000
0000
,
0010
0000
0100
0000
0001
0000
0010
0001
0000
0000
0100
0000
0010
0100
0010
0000
,
1000
0000
0001
0000
0010
0000
0000
0010
0000
0000
0010
0000
0001
0010
0001
0000
,
0100
0000
1000
0000
0100
0000
0010
0100
0000
0000
0001
0000
0100
0000
1000
0000
,
0100
0000
0001
0000
0001
0000
1000
0100
0000
0100
1000
0000
0010
0000
0000
0100
,
0000
0001
0000
0000
0010
0000
0000
0100
0000
0000
1000
0000
0000
0000
0001
0000
,
1000
0000
0001
0000
0010
0000
0000
0100
0000
0000
0010
0000
0011
0000
0000
0110
,
M000
1001
0000
0100
1000
1100
0000
0010
,
0100
1000
0100
0001
0000
0100
2002
0000
,
0000
0000
3003
0000
;

//---------------dance-double - M.Emirzian----------------
#NOTES:
     dance-double:
     M.Emirzian:
     Easy:
     4:
     0.270,0.303,0.120,0.040,0.000,173.000,12.000,4.000,0.000,0.000,0.000:
00000000
00000000
00000000
00000000
,
00000000
00000000
00000000
00000000
,
00000000
00000000
00000000
00000000
,
00000000
00000000
00000000
00000000
,
00100000
00000000
00000000
00000000
00000000
00000000
00000000
01000000
,
00000000
00000000
00010000
10000000
,
01000000
00000000
00000000
00000000
00000000
00000000
00000000
00010000
,
00000000
00000000
00000000
00000000
,
00001000
00000000
00000000
00000000
00000000
00000000
00000000
00010000
,
00000000
00000000
00001000
00010000
,
00001000
00000000
00000000
00000000
00000000
00000000
00000000
00000010
,
00000000
00000000
00000001
00001000
,
00000100
00000000
00000000
00000001
00000000
00000000
00000000
00000100
,
00000000
00000000
00000000
00000010
,
00001000
00000000
00000000
00000100
00000000
00000000
00000000
00000001
,
00000000
00000000
00000000
00010000
,
00001000
00000000
00000000
01000000
00000000
00000000
00000000
00001000
,
00000000
00000000
00000000
01000000
,
00010000
00000000
00000000
01000000
00000000
00000000
00000000
00100000
,
00000000
00000000
10000000
01000000
,
20020000
00000000
30030000
10000000
,
00010000
00000000
00000000
00000000
01000000
00000000
00000000
00100000
,
00000000
10000000
01000000
00100000
,
00010000
00000000
00000000
00000000
00100000
00000000
00000000
00001000
,
00000000
00010000
00001000
01000000
,
00001000
00000000
00000000
00000000
00010000
00000000
00000000
00000100
,
00000000
00001000
00000001
00000100
,
00001000
00000000
00000000
00000000
00000100
00000000
00000000
00000001
,
00000000
00000010
00000001
00000010
,
00000100
00000000
00000000
00000000
00001000
00000000
00000000
00000001
,
00000000
00000100
00001000
00010000
,
00001000
00000000
00000000
00000000
00010000
00000000
00000000
00001000
,
00000000
01000000
00100000
10000000
,
01000000
00000000
00000000
00000000
00100000
00000000
00000000
00010000
,
00000000
01000000
00001000
01000000
,
00010000
00000000
00000000
00000000
01000000
00000000
00000000
00100000
,
00000000
10000000
01000000
00100000
,
00010000
00000000
00000000
01000000
,
00001000
00000000
00000000
00010000
,
00001000
00000000
00000000
00010000
,
00001000
00000100
00000000
00000000
,
00000001
00001000
00000000
00000000
,
00000001
00000100
00000000
00000000
,
00000010
00000000
00001000
00000000
00000100
00000000
00000000
00001000
,
00000000
00000000
00000000
00000000
00000001
00000000
00000000
00000100
,
00000000
00000000
00000000
00000000
00001000
00000000
00000000
00010000
,
00000000
00000000
00011000
00000000
,
00000000
00000000
00000000
00000000
00010000
00000000
00000000
00001000
,
00000000
00000000
00000000
00000000
01000000
00000000
00000000
00010000
,
00000000
00000000
00000000
00000000
10000000
00000000
00000000
01000000
,
00000000
00000000
01100000
00000000
,
00000000
00000000
10010000
00000000
,
00001000
00000000
00011000
00000000
,
00000001
00000000
00001001
00000000
,
00010000
00000000
00011000
00000000
,
10000000
00000000
10010000
00000000
,
00001000
00000000
00011000
00000000
,
00000001
00000000
00001001
00000000
,
00010000
00000000
00011000
00010000
,
00000000
00000000
00001000
00000000
00000000
01000000
00000000
00000000
,
00010000
01000000
00001000
00010000
,
00000000
00000000
00001000
00000000
00000000
00100000
00000000
00000000
,
00010000
01000000
00100000
10000000
,
00000000
00000000
01000000
00000000
00000000
10000000
00000000
00000000
,
00010000
01000000
00001000
00010000
,
00000000
00000000
00000100
00000000
00000000
00010000
00000000
00000000
,
00001000
00010000
00000100
00001000
,
00000000
00000000
00000001
00000000
00000000
00000010
00000000
00000000
,
00000100
00001000
00000001
00000100
,
00000000
00000000
00000010
00000000
00000000
00001000
00000000
00000000
,
00000100
00001000
00000001
00001000
,
00000000
00000000
00000100
00000000
00000000
00010000
00000000
00000000
,
00001000
01000000
00010000
01000000
,
00000000
00000000
00001000
00000000
00000000
01000000
00000000
00000000
,
00010000
00100000
01000000
20020000
,
00000000
00000000
00000000
30030000
;

//---------------dance-double - M.Emirzian----------------
#NOTES:
     dance-double:
     M.Emirzian:
     Medium:
     7:
     0.449,0.411,0.330,0.020,0.010,279.000,33.000,2.000,0.000,0.000,0.000:
00000000
00000000
00000000
00000000
,
00000000
00000000
00000000
00000000
,
00000000
00000000
00000000
00000000
,
00000000
00000000
00000000
00000000
,
00010000
00000000
00000000
01000000
00000000
00000000
00000000
00100000
,
00000000
10000000
00010000
01000000
,
00001000
00000000
00000000
01000000
00000000
00000000
00000000
00020200
,
00000000
00000000
00000000
00000000
00000000
00030300
00000000
00000000
,
00001000
00000000
00000000
00000001
00000000
00000000
00000000
00010000
,
00000000
00001000
00010000
00001000
,
00000100
00000000
00000000
00000001
00000000
00000000
00000000
00001100
,
00000000
00000000
00000001
00000100
,
00001000
00000000
00000000
00010000
00000000
00000000
00000000
00001000
,
00000000
01000000
00010000
01000000
00100000
00000000
10000000
00000000
,
01000000
00000000
00000000
00100000
00000000
00000000
00000000
00010000
,
00000000
10010000
00000000
00000000
10000000
00000000
01000000
00000000
,
00010000
00000000
00000000
00001000
00000000
00000000
00000000
01000000
,
00000000
00001000
00010000
00000100
00001000
00000000
00000010
00000000
,
00001000
00000000
00000000
00000100
00000000
00000000
00000000
00000010
,
00000000
00000001
00000000
00000000
00000100
00000000
00000010
00000000
,
00001001
00000000
00000010
00001100
,
00000010
00001000
00000100
00000000
00010000
00000000
00000000
00001000
,
00000000
01000000
00001000
00000000
01000000
00000000
01010000
00000000
,
00100000
10000000
00100000
00000000
01000000
00000000
00000000
00010000
,
00000000
10000000
01000000
00000000
00100000
00000000
00110000
00000000
,
00001000
00010000
00000100
00000000
00010000
00000000
00000000
00001000
,
00000000
00000100
00000001
00000000
00001000
00000000
00001100
00000000
,
00000001
00000100
00000010
00000000
00001000
00000000
00000000
00000100
,
00000000
00001000
00000010
00000000
00010000
00000000
00011000
00000000
,
00000100
00010000
00001000
00000000
01000000
00000000
00000000
00010000
,
00000000
00100000
01000000
00000000
00100000
00000000
00110000
00000000
,
01000000
10000000
01000000
00000000
00010000
00000000
00000000
10000000
,
00000000
01000000
00100000
00000000
00010000
00000000
01001000
00000000
,
00001000
00010000
00001000
00000000
00010000
00000000
00000000
00000100
,
00000000
00000010
00000001
00000000
00001000
00000000
00001010
00000000
,
00000100
00000001
00000010
00000000
00000100
00000000
00000000
00001000
,
00000000
00000001
00000100
00000000
00000010
00000000
00001010
00000000
,
00010000
00000000
00000000
00000000
00000000
00000000
00000000
00001000
00000000
00000000
00010000
00000000
00000000
00000000
00001000
00000000
,
01000000
00000000
00000000
00010000
00000000
00000000
00000000
01000000
,
00010000
00000000
00000000
10000000
00000000
00000000
00010000
00000000
00000000
00000000
00000000
00000000
10000000
00000000
01000000
00000000
,
00100000
00001000
00010000
00000000
00000000
00000000
00000100
00000000
,
00001000
00000010
00000100
00000001
,
00000000
00001000
00000100
00010000
,
00001000
00000000
01000000
00000000
00100000
10000000
01000000
00000000
,
00100000
00000000
10000000
00000000
00100000
00010000
01000000
00000000
,
00001000
00000000
00010000
00000000
00001000
00000100
00000001
00000000
,
00001000
00000000
00000010
00000000
00000001
00000010
00001000
00000000
,
00000100
00000000
00010000
00000000
00001000
01000000
00001000
00000000
,
00010000
00000000
01000000
00000000
00010000
01000000
10000000
00000000
,
01000000
00000000
00010000
00000000
00100000
01000000
10000000
00000000
,
00100000
01010000
10010000
00000000
,
01100000
00000000
00010000
00000000
10010000
00000000
00000000
00001000
,
00000000
00000000
00010000
00000000
00001001
00000000
00000000
00010000
,
00000000
00000000
00001000
00000000
10010000
00000000
00000000
00001000
,
00000000
00010000
00001001
00000000
,
00000000
00000000
00000000
00000000
01100000
00000000
00000000
00010000
,
00000000
00000000
00001000
00000000
00000110
00000000
00000000
00001000
,
00000000
00000000
00010000
00000000
01100000
00000000
00000000
00010000
,
00000000
00000000
00001000
00000000
00000110
00000000
00000001
00000100
,
00001000
00000000
00000100
00000000
00000000
00000001
00000000
00000010
,
00000100
00000000
00001000
00000000
00000101
00000000
00001000
00000100
,
00010000
00000000
00001000
00000000
00000000
01000000
00000000
00010000
,
01000000
00000000
00100000
00000000
10100000
00000000
10000000
01000000
,
00010000
00000000
01000000
00000000
00000000
10000000
00000000
00100000
,
01000000
00000000
00010000
00000000
01010000
00000000
00001000
00010000
,
01000000
00000000
00010000
00000000
00000000
00001000
00000000
00010000
,
00000100
00000000
00001000
00000000
00001010
00000000
00000100
00000001
,
00001000
00000000
00000100
00000000
00000000
00000001
00000000
00000100
,
00001000
00000000
00000100
00000000
00000101
00000000
00000010
00000100
,
00001000
00000000
00000100
00000000
00000000
00010000
00000000
00001000
,
00000100
00000000
00001000
00000000
00011000
00000000
00001000
01000000
,
00010000
00000000
01000000
00000000
00000000
00100000
00000000
10000000
,
01000000
00000000
00100000
00000000
00110000
00000000
10000000
00100000
,
00010000
00000000
00001000
00000000
00000000
00010000
00000000
00000010
,
00001000
00000100
00000011
00001001
;

//---------------dance-double - M.Emirzian----------------
#NOTES:
     dance-double:
     M.Emirzian:
     Challenge:
     11:
     0.903,1.000,0.880,0.020,0.855,542.000,88.000,2.000,10.000,1.000,0.000:
00000000
00000000
00000000
00000000
,
00000000
00000000
00000000
00000000
,
00000000
00000000
00000000
00000000
,
00000000
00000000
00000000
00000000
,
00100000
00000000
00010000
00001000
00000000
01010000
00000000
00001100
,
00000000
00000000
00000001
00000000
00000010
00000000
00000100
00000000
00001000
00000000
00000010
00000000
00001000
00000100
00000010
00000000
,
00000100
00000000
00001000
00010000
00000000
00001100
00000000
01010000
,
00000000
00000000
00000000
00100000
10000000
00000000
00100000
01000000
00000000
00010000
00000000
10000000
00010000
10000000
01000000
00000000
,
10000000
00000000
01000000
00100000
00000000
00110000
00000000
00001010
,
00000000
00000000
00000100
00000000
00001000
00000000
00000010
00000000
00001000
00000000
00000100
00000000
00000010
00000100
00010000
00000000
,
00100000
00000000
01000000
00010000
00000000
01100000
00000000
00001100
,
00000000
00000000
00000000
00000000
00000001
00000000
00000010
00000000
00000100
00000000
00001000
00000000
00000001
00000100
00000010
00001000
,
00000100
00000000
00001000
00001010
00000000
00100010
00000000
01010000
,
00000000
00000000
00100000
00000000
10000000
00000000
00100000
00000000
01000000
00000000
00010000
00000000
10000000
01000000
00100000
00010000
,
01000000
00000000
00010000
01010000
00000000
01000100
00000000
00001100
,
00000000
00000000
00000000
00000001
00000100
00000000
00000010
00001000
00000000
00000100
00000000
00001000
00000100
00000010
00000001
00000000
,
00001000
00000000
00000010
00000110
00000000
00011000
00000000
01100000
,
00000000
00000000
01000000
00000000
10000000
00000000
00100000
00000000
01000000
00000000
00010000
00000000
01000000
00100000
10000000
00100000
,
01000000
00000000
00010000
00110000
00000000
00001100
00000000
00001001
,
00000000
00000000
00000001
00000100
00000010
00001000
00000001
00001000
00000100
00000010
00000100
00010000
00001000
00000000
00000000
00000000
,
00010000
00001000
01000000
00000000
00000000
00000000
00010000
01000000
00100000
00000000
00000000
00000000
10010000
00000000
10000000
00000000
,
01000000
00000000
10000000
01000000
00000000
01000000
00100000
00000000
10010000
00000000
00000000
01010000
00000000
00000000
01001000
00000000
,
00000000
00000000
00011000
00000000
00000000
00100010
00000000
00000000
00001010
00000000
00000000
00001001
00000000
00000000
00000100
00000010
,
00000001
00000000
00000100
00000010
00000000
00000010
00001000
00000000
00000100
00000000
00000000
00000010
00000000
00000000
00000001
00000000
,
00000000
00000000
00000100
00000000
00000010
00000000
00001000
00000000
00000100
00000000
00000100
00001000
00000000
00000000
00000001
00001000
,
00000100
00000000
00010000
00001000
00000000
00001000
01000000
00000000
01001000
00000000
00000000
01000100
00000000
00000000
00011000
00000000
,
00000000
00000000
01000000
00000000
10000000
00000000
01000000
00000000
00100000
00000000
00000000
00010000
00000000
01000000
00100000
10000000
,
00100000
00000000
01000000
00010000
00000000
00000000
10010000
00000000
00000000
00000000
01000000
00000000
00100000
00000000
00010000
00000000
,
00000000
00000000
10000000
00000000
00100000
00000000
01000000
00000000
00001000
00000000
00010000
00001000
00000000
01000000
00001000
00010000
,
00001000
00000000
00010000
00000100
00000000
00000100
00001000
00000000
00001010
00000000
00000000
00001001
00000000
00000000
00001100
00000000
,
00000000
00000000
00001001
00000000
00000000
00000110
00000000
00000000
00011000
00000000
00000000
00100010
00000000
00000000
00001000
00010000
,
00001000
00000000
01000000
00010000
00000000
00010000
00100000
00000000
01000000
00000000
00000000
10000000
00000000
00000000
00100000
00000000
,
00000000
00000000
01000000
00000000
00010000
00000000
00000000
10000000
01000000
00000000
00000000
10010000
00000000
00000000
10000000
00100000
,
01000000
00000000
00010000
00100000
00000000
00100000
00001000
00000000
00011000
00000000
00000000
00010100
00000000
00000000
00011000
00000000
,
00000000
00000000
00000100
00000000
00000010
00000000
00000100
00000000
00001000
00000000
00000000
00000001
00000000
00000100
00000010
00001000
,
00000010
00000000
00000100
00000001
00000000
00000000
00000011
00000000
00000000
00000000
00000100
00000000
00001000
00000000
00000001
00000000
,
00000000
00000000
00000100
00000000
00000010
00000000
00001000
00000000
00000100
00000000
00001000
00000001
00000000
00000100
00000010
00001000
,
00000010
00000000
00000000
00000000
00011000
00000000
00000000
00001000
00000000
01000000
00010000
00000000
00000000
00000000
01000000
00000000
,
10100000
00000000
00000000
00000000
00000000
00000000
10001000
00000000
00000000
00000000
00011000
00000000
00000000
00000000
00001000
00010000
,
00000100
00000000
00000000
00000010
00000000
00000000
00000011
00000000
00000000
00000000
00000000
00000000
00000100
00001000
00000000
00000010
,
00010000
000MM000
00001000
00000000
01000000
00000000
00000000
00000000
00010000
00000000
00000000
10001000
00000000
00000000
01000000
00000000
,
00000000
00100000
11000000
00000000
00000000
00100010
00000000
00M000M0
,
00000000
00000000
00100000
00001000
00010000
00000000
00000000
00000100
00000000
00000000
00010001
00000000
00000000
00000000
000M000M
00000000
,
00000010
00000100
00000000
00000100
00001000
00000M0M
00000001
00000100
00000010
00000000
00001000
00000000
00000100
00000000
00000010
00000001
,
00000000
00001000
00000000
00000010
00000000
00000000
00001000
00000000
00000100
00000000
00010000
00000000
00001000
00000000
01000000
00100000
,
00000000
01000000
00000000
00001000
00010000
00000000
01000000
00100000
01000000
00000000
10000000
00000000
00100000
00000000
01000000
00010000
,
00000000
01000000
00000000
00001000
00000000
00000000
00100000
00000000
00010000
00000000
01000000
00000000
00010000
00000000
00100000
00001000
,
00000000
00010000
00000000
00000100
00001000
00000000
00000001
00000000
00000010
00000000
00000100
00000000
00001000
00000000
00000001
00000100
,
00000000
00001000
00000000
00010000
00000000
00000000
00001000
00000000
00000010
00000000
00001000
00000000
00010000
00000000
00100000
10000000
,
00000000
01000000
00000000
10000000
00100000
00000000
01000000
00010000
10000000
00000000
01000000
00000000
00100000
00000000
00001000
00010000
,
00000000
00000100
00000000
00001000
00000000
00000000
00000010
00000000
00000202
00000000
00000000
00000000
00000000
00000000
00000000
00000000
,
00011000
00000000
00000000
00000000
00000000
00000303
00000000
00000000
00001001
00000000
00000000
00000000
00000000
00000000
00000110
00000000
,
00000000
00000000
00011000
00000000
00000000
00000000
00001000
01000000
10000000
00000000
00000000
00000000
00000000
00000000
01100000
00000000
,
00000000
00000000
00011000
00000000
00000000
00000000
00010000
00000100
00000001
00000000
00000000
00000000
00000000
00000000
00000110
00000000
,
00000000
00000000
00011000
00000000
00000000
00000000
00001000
00100000
10000000
00000000
00000000
00000000
01100000
00000000
00000000
00000000
,
10010000
01100000
10010000
00011000
,
00100010
00011000
01000100
00011000
,
01000010
00011000
01100000
00011000
,
00000110
00000000
00000000
00000000
00011000
00000000
00000000
00000000
01000100
00000000
000MM000
00000000
00001000
00000000
00010000
00001000
,
00000000
00001000
01000000
00000000
01010000
00000000
00000000
10010000
00000000
00000000
11000000
00000000
00000000
00000000
00110000
00000000
,
00000000
10010000
00000000
00000000
01010000
00000000
00000000
01001000
00000000
00000000
00001000
00010000
00000100
00000000
00010000
00001000
,
00000000
00001000
01000000
00000000
00001000
00000000
00000000
00010000
00000000
00000000
00000010
00000000
00000000
00000000
00001000
00000000
,
00000100
00000000
00000010
00000000
00000001
00000000
00000000
00001000
00000000
00000000
00000010
00000100
00000001
00000000
00001000
00000100
,
00000000
00000100
00010000
00000000
00011000
00000000
00000000
01001000
00000000
00000000
01010000
00000000
00000000
00000000
10000000
00000000
,
01000000
00000000
00100000
00000000
00010000
00000000
00000000
01000000
00000000
00010000
10000000
01000000
10000000
00000000
00010000
01000000
,
00000000
00001000
00000000
00100000
01000000
10000000
00000000
00100000
,
00010000
00000000
00001000
00000000
00010000
00000000
00000100
00001000
00000000
00001000
00000010
00000000
00000100
00000001
00000100
00000000
,
00000010
00001000
00000010
00000000
00001000
00000100
00001000
00000100
00010000
00001000
00010000
00000000
00000100
00010000
00000100
00000000
,
00010000
00001000
00010000
00000000
00001000
01000000
00001000
01000000
00010000
01000000
00010000
00000000
10000000
01000000
10000000
00000000
,
00010000
00100000
00010000
00000000
10000000
00010000
01000000
00010000
01000000
00001000
00010000
00000000
00000010
00010000
00000010
00000000
,
00010000
00001000
00010000
00000000
00000010
00001000
00000010
00010000
00000010
00010000
00001000
00000000
00000100
00000010
00000100
00000000
,
00000001
00000100
00000001
00000000
00001000
00000100
00001000
00000100
00000010
00000001
00000010
00000000
00000100
00001000
00000100
00000000
,
00010000
00001000
00010000
00000000
00001000
01000000
00001000
01000000
00010000
01000000
00100000
01000000
00100000
10000000
00100000
00000000
,
01000000
00010000
01000000
00000000
00010000
00100000
00010000
00100000
00001000
00010000
00001000
00000000
00010000
00000100
00010000
00000000
,
00000010
00001000
00000010
00000100
00000001
00000100
00000010
00001000
00000100
00001000
00000100
00010000
00001000
00000000
00000000
00000000
;

//---------------dance-double - J.Casarino----------------
#NOTES:
     dance-double:
     J.Casarino:
     Hard:
     9:
     0.781,0.865,0.340,0.600,0.255,451.000,34.000,60.000,0.000,4.000,0.000:
00000000
00000000
00000000
00000000
,
00000000
00000000
00000000
00000000
,
00000000
00000000
00000000
00000000
,
00000000
00000000
00000000
00000000
,
00011000
00000000
00010000
00000100
00000010
00000001
00000010
00000100
,
00000000
00010000
00000010
00000010
00000100
00000001
00000100
00000000
,
00001010
00000000
00010000
00001000
00010000
00100000
10000000
01000000
,
00000000
10100000
00000000
00010000
01000000
00001000
00010000
00000000
,
00110000
00000000
10000000
00100000
10000000
01000000
00010000
00001000
,
00000000
00000100
00000001
00000001
00000010
00001000
00000010
00000000
,
00001100
00000000
00010000
00000100
00000010
00000001
00000100
00000010
,
00010010
00000000
00000100
00010100
00000000
00010000
00011000
00000000
,
01001000
00000000
00100000
10000000
01000000
00100000
00010000
10000000
,
00000000
00100000
00010000
00010000
00001000
00010000
00000010
00001000
,
00000001
00000000
00000010
00000100
00001000
00000001
00000100
00001000
,
00000000
00011000
00000000
00001000
00010000
01000000
00010000
00001000
,
00100000
00000000
00010000
01000000
10000000
01000000
00100000
10000000
,
00000000
01000000
00010000
00001000
00100000
00001000
00000010
00000001
,
00001000
00000000
00000100
00000001
00000100
00001000
00000010
00010000
,
00011000
00000000
00010000
00010100
00000000
00000100
00000011
00000000
,
00002002
00000000
00000000
00000000
00000000
00000000
00000000
00000000
00000110
00003003
00000000
00000000
00001001
00000000
00000000
00000000
,
00010020
00000000
00000000
00010000
00000000
00010030
00000000
00000000
00000010
00000000
00000000
00001000
00000000
00000000
00000001
00000000
,
00000000
00000000
00000010
00000000
00000000
00000100
00000000
00000000
00002000
00000000
00000000
00000100
00000000
00000000
00003100
00000000
,
00010000
00000000
00000000
00000010
00000000
00000010
00000000
00000000
00001000
00000000
00000000
00000001
00000000
00000000
00000200
00000000
,
00000000
00000000
00001000
00000000
00002300
00000000
00000000
00000000
00013000
00000000
00000000
00100000
00000000
00000000
00010000
00000000
,
00001000
00000000
00000000
00100000
00000000
00100000
00000000
00000000
00010000
00000000
00000000
01000000
00000000
00000000
00200000
00000000
,
00000000
00000000
10000000
00000000
10000000
00300000
20000000
00000000
01000000
00000000
00000000
01000000
00000000
30000000
01000000
00000000
,
00100000
00000000
00000000
00001000
00000000
00000000
00010000
00000000
00000000
00000000
01000000
00000000
00010000
00000000
00002000
00000000
,
00000000
00000000
00000010
00000000
00000010
00000000
00000010
00000000
00003010
00000000
00000000
00001000
00000000
00000000
00010000
00000000
,
00200000
00000000
00000000
10000000
00000000
10300000
00000000
00000000
01000000
00000000
00000000
00010000
00000000
00000000
00001000
00000000
,
00000000
00000000
00010000
00000000
00000000
01000000
00000000
00000000
20000000
00000000
00000000
00100000
30000000
00000000
00100000
00000000
,
00010000
00000000
00000000
00001000
00000000
00001000
00000000
00000000
00000100
00000000
00000000
00000001
00000000
00000000
00000020
00000000
,
00000000
00000000
00001000
00000000
00002030
00000000
00000000
00000000
00003010
00000000
00000000
00000001
00000000
00000000
00000100
00000000
,
00001000
00000000
00000000
00010000
00000000
00010000
00000000
00000000
00001000
00000000
00000000
00100000
00000000
00000000
02000000
00000000
,
00000000
00000000
10000000
00000000
10000000
00000000
23000000
00000000
01000000
00000000
00000000
01000000
00000000
00000000
31000000
00000000
,
00100000
00000000
00000000
10000000
00000000
00000000
00100000
00000000
00000000
00000000
00001000
00000000
00010000
00000000
00000020
00000000
,
00000000
00000000
00000100
00000000
00000100
00000000
00000100
00000000
00000130
00000000
00000000
00000001
00000000
00000000
00000100
00000000
,
00001001
00000000
00000000
00000000
00000001
00000000
00001000
00000000
00000000
00000000
00000001
00000000
00001000
00000010
00000000
00000000
,
00010010
00000000
00000000
00000000
00010000
00000000
00000100
00000000
00000000
00000000
00010000
00000000
00001000
00010000
00000000
00000000
,
00101000
00000000
00010000
01000000
00100000
00000000
00000000
00000000
,
10110000
00000000
10010000
00000000
10000000
00010000
00000000
10000000
,
00010000
00100000
00000000
00000000
00101000
00000000
00000000
00000000
00001000
00000000
01000000
00000000
00000000
00000000
00001000
00000000
,
00010000
00001000
00000000
00000000
00010010
00000000
00000000
00000000
00001000
00000000
00000100
00000000
00001000
00000000
00000000
00000000
,
00000000
00000000
00001101
00000000
00000001
00000100
00000010
00001000
,
00000000
00000100
00000010
00001000
00010000
01000000
00100000
00010000
,
00000000
01000000
01100000
00000000
10000000
01000000
00100000
00010000
,
00000000
01000000
00100000
00010000
00001000
00000100
00000010
00000100
,
00000000
00000001
00001001
00000000
00000010
00010000
00001000
00010000
,
00000000
00000100
00001000
00000010
00001000
00000100
00010000
00001000
,
00000000
01000000
01010000
00000000
00100000
00001000
00010000
00001000
,
00000000
01000000
00010000
00100000
00202000
00000000
00000000
00000000
,
10010000
00303000
00000000
00000000
00100000
00000000
00000000
00000000
10000000
00000000
00100000
00000000
00010000
00000000
00100000
00000000
,
10000000
01000000
00010000
00001000
00010000
00100000
00010000
00001000
,
00000100
00000001
00000010
00001000
00000010
00000001
00000100
00001000
,
00010000
00001000
00000010
00001000
00010000
01000000
10000000
00100000
,
00010000
00001000
01000000
00001000
00000100
00000001
00000010
00001000
,
00010000
00000100
00010000
01000000
10000000
00100000
01000000
00001000
,
00100000
00000100
00010000
00000010
00001000
00000001
00000100
00001000
,
00010000
00000000
00000010
00000000
01000000
00000000
00001000
00000000
02002000
00000000
03003000
00000000
00002000
00000000
00000000
02000000
,
00003000
00020000
03000000
00000000
00200000
00030000
00000000
20000000
00300000
00000000
00200000
30000000
00000000
00000000
02000000
00300000
,
00000000
00020000
03000000
00000000
00002000
00030000
00000000
00000200
00003000
00000000
00000002
00000300
00002000
00000003
00000000
00000002
,
00003000
00000020
00000003
00000000
00002000
00000030
00000000
00020000
00003000
00000000
00000020
00030000
00000000
00000000
00000230
00000000
,
00000010
00000000
00000320
00000000
00000002
00000030
00000000
00000020
00000003
00000000
00000200
00000030
00000002
00000300
00000000
00002000
,
00000003
00000002
00003000
00000000
00000200
00000003
00000000
00002000
00000300
00000000
00020000
00003000
00000000
00000000
02000000
00030000
,
10000000
00000000
23000000
00000000
00020000
30000000
00000000
00200000
00030000
00000000
20300000
00000000
00200000
30000000
00000000
02000000
,
00300000
03020000
00000000
00000010
00031000
00000200
00000000
00000320
,
00000100
00000000
00000130
00000000
00001100
00000000
00000000
00011000
00000000
00000000
01000000
00000000
00100000
00000000
00010000
00000000
,
00100000
00010000
00001000
00000100
00001000
00000100
00000001
00001000
,
00000001
00000100
00000010
00010000
00000100
00000100
00000010
00001000
,
00000010
00001000
00010000
00100000
00010000
00100000
10000000
01000000
,
00010000
01000000
10000000
00100000
00010000
00010000
00001000
01000000
,
00001000
00000100
00000010
00010000
00100000
00010000
00000010
00010000
,
00000100
01000000
00001000
00100000
00010000
00010000
01000000
10000000
,
01000000
00100000
00010000
00001000
00010000
00000010
00000100
00000001
,
00000010
00000000
00000100
00000000
00001000
00000000
00000010
00001000
00000000
00000100
00010000
00000000
00022000
00000000
00000000
00000000
,
00000000
00033000
00000000
00000000
;

//---------------dance-single - K. Ward----------------
#NOTES:
     dance-single:
     K. Ward:
     Beginner:
     1:
     0.100,0.187,0.110,0.000,0.000,59.000,11.000,0.000,0.000,0.000,0.000:

0000
0000
0000
0000
,
0000
0000
0000
0000
,
0000
0000
0000
0000
,
0000
0000
0000
0000
,
1000
0000
0000
0000
,
0000
0000
0000
0000
,
1000
0000
0000
0000
,
0000
0000
0000
0000
,
0001
0000
0000
0000
,
0000
0000
0000
0000
,
0001
0000
0000
0000
,
0000
0000
0000
0000
,
1000
0000
0000
0000
,
1000
0000
0000
0000
,
0001
0000
0000
0000
,
0001
0000
0000
0000
,
0010
0000
0000
0000
,
0010
0000
0000
0000
,
0100
0000
0000
0000
,
0100
0000
0000
0000
,
1001
0000
0000
0000
,
0001
0000
0000
0000
,
0000
0000
0000
0000
,
1000
0000
0000
0000
,
0000
0000
0000
0000
,
0001
0000
0000
0000
,
0001
0000
0000
0000
,
1000
0000
0000
0000
,
1000
0000
0000
0000
,
1001
0000
0000
0000
,
0000
0000
0000
0000
,
0110
0000
0000
0000
,
0000
0000
0000
0000
,
1001
0000
0000
0000
,
0000
0000
0000
0000
,
0001
0000
0001
0000
,
0001
0000
0000
0000
,
1000
0000
0000
0000
,
0000
0000
0000
0000
,
0001
0000
0000
0000
,
0110
0000
0000
0000
,
0000
1000
0000
0000
,
0000
0001
0000
1000
,
0000
1001
0000
1000
,
0000
0000
0000
0001
,
0000
0000
0000
1000
,
0000
0000
1001
0000
,
0000
0000
0000
0010
,
0000
0000
0000
0100
,
0000
0000
0000
0010
,
0000
0000
0110
0000
,
0000
0000
1000
0000
,
0000
0000
0001
0000
,
0000
0000
1000
0000
,
0000
0000
0001
0000
,
0000
0000
0001
0000
,
0000
0000
1000
0000
,
0000
0000
0001
0000
,
1000
0000
0000
1001
,
0000
0000
0000
0000
,
0000
0000
0000
1001
,
0000
0000
0000
0000
,
0000
0000
0000
0100
,
0000
0000
0000
0000
,
0000
0000
0000
0100
,
0000
0000
0000
0000
,
0000
0000
0000
0001
,
0000
0000
0000
0001
,
0000
0000
0000
0001
,
0000
0000
0000
0000
,
0000
0000
0000
1000
,
0000
0000
0000
1000
,
0000
0000
0000
1000
,
0000
0000
0000
0000
,
0000
0000
0000
1001
;
